In Joomla hwdvideoshare everything was fine until i submitted a mov file of 14mb(Joomla hwdvideoshare states you are able to upload personal files with size up to 100mb). After i submitted personal files from the size pointed out it states Queued For Video Conversion. After i am uploading files with lesser size there is no problem.

Also after i attempted to transform the file from the size i pointed out while using ripper tools it states

Converting FLV Video
ERROR: Problem with FFMPEG - Output video has zero filesize.
FFMPEG INPUT
/home/wwwusent/public_html/hwdvideos/uploads/originals/wdfg2f25dydm0r.mov -o /home/wwwusent/public_html/hwdvideos/uploads/wdfg2f25dydm0r.flv -of lavf -oac mp3lame -lameopts abr:br=64 -ovc lavc -lavcopts vcodec=flv:vbitrate=600:mbd=2:mv0:trell:v4mv:cbp:last_pred=3:keyint=150 -vf scale=640:469.333333333,harddup -ofps 25 -srate 22050
FFMPEG OUTPUT
FFmpeg version 0.6.1, Copyright (c) 2000-2010 the FFmpeg developers built on Dec 4 2010 15:37:20 with gcc 4.1.2 20080704 (Red Hat 4.1.2-48) configuration: --prefix=/usr --libdir=/usr/lib --shlibdir=/usr/lib --mandir=/usr/share/man --incdir=/usr/include --disable-avisynth --extra-cflags='-O2 -g -pipe -Wall -Wp,-D_FORTIFY_SOURCE=2 -fexceptions -fstack-protector --param=ssp-buffer-size=4 -m32 -march=i386 -mtune=generic -fasynchronous-unwind-tables' --enable-avfilter --enable-avfilter-lavf --enable-libdirac --enable-libfaac --enable-libfaad --enable-libfaadbin --enable-libgsm --enable-libmp3lame --enable-libopencore-amrnb --enable-libopencore-amrwb --enable-libx264 --enable-gpl --enable-nonfree --enable-postproc --enable-pthreads --enable-shared --enable-swscale --enable-vdpau --enable-version3 --enable-x11grab libavutil 50.15. 1 / 50.15. 1 libavcodec 52.72. 2 / 52.72. 2 libavformat 52.64. 2 / 52.64. 2 libavdevice 52. 2. 0 / 52. 2. 0 libavfilter 1.19. 0 / 1.19. 0 libswscale 0.11. 0 / 0.11. 0 libpostproc 51. 2. 0 / 51. 2. 0 [mov,mp4,m4a,3gp,3g2,mj2 @ 0x84e2850]max_analyze_duration reached Seems stream 0 codec frame rate differs from container frame rate: 60000.00 (60000/1) -> 29.97 (30000/1001) Input #0, mov,mp4,m4a,3gp,3g2,mj2, from '/home/wwwusent/public_html/hwdvideos/uploads/originals/wdfg2f25dydm0r.mov': Metadata: major_brand : qt minor_version : 0 compatible_brands: qt Duration: 00:00:42.06, start: 0.000000, bitrate: 2793 kb/s Stream #0.0(und): Video: h264, yuv420p, 720x480 [PAR 10:11 DAR 15:11], 2534 kb/s, 29.97 fps, 29.97 tbr, 30k tbn, 60k tbc Stream #0.1(und): Audio: aac, 48000 Hz, 5.1, s16, 225 kb/s Stream #0.2(und): Data: tmcd / 0x64636D74 Output #0, flv, to '/home/wwwusent/public_html/hwdvideos/uploads/wdfg2f25dydm0r.flv': Stream #0.0(und): Video: flv, yuv420p, 640x469 [PAR 1:1 DAR 640:469], q=2-31, 600 kb/s, 90k tbn, 29.97 tbc Stream #0.1(und): Audio: libmp3lame, 22050 Hz, 5.1, s16, 64 kb/s Stream mapping: Stream #0.0 -> #0.0 Stream #0.1 -> #0.1 Error while opening encoder for output stream #0.1 - maybe incorrect parameters such as bit_rate, rate, width or height sh: /home/wwwusent/public_html/hwdvideos/uploads/originals/wdfg2f25dydm0r.mov: Permission denied sh: /home/wwwusent/public_html/hwdvideos/uploads/originals/wdfg2f25dydm0r.mov: Permission denied
Converting MP4 Video
ERROR: Problem with FFMPEG - Output video has zero filesize.
FFMPEG INPUT
/usr/bin/ffmpeg -y -i /home/wwwusent/public_html/hwdvideos/uploads/originals/wdfg2f25dydm0r.mov -s 640x469.333333333 -acodec libfaac -ab 128k -pass 2 -vcodec libx264 -flags +loop -cmp +chroma -partitions +parti4x4+partp8x8+partb8x8 -me_method umh -subq 5 -trellis 1 -refs 1 -coder 0 -me_range 16 -g 150 -keyint_min 25 -sc_threshold 40 -i_qfactor 0.71 -maxrate 1.5M -bufsize 10M -rc_eq 'blurCplx^(1-qComp)' -qcomp 0.6 -qmin 10 -qmax 51 -qdiff 4 -level 30 -aspect 16:9 -b 500k -bt 500k -threads 0 /home/wwwusent/public_html/hwdvideos/uploads/wdfg2f25dydm0r.mp4
FFMPEG OUTPUT
FFmpeg version 0.6.1, Copyright (c) 2000-2010 the FFmpeg developers built on Dec 4 2010 15:37:20 with gcc 4.1.2 20080704 (Red Hat 4.1.2-48) configuration: --prefix=/usr --libdir=/usr/lib --shlibdir=/usr/lib --mandir=/usr/share/man --incdir=/usr/include --disable-avisynth --extra-cflags='-O2 -g -pipe -Wall -Wp,-D_FORTIFY_SOURCE=2 -fexceptions -fstack-protector --param=ssp-buffer-size=4 -m32 -march=i386 -mtune=generic -fasynchronous-unwind-tables' --enable-avfilter --enable-avfilter-lavf --enable-libdirac --enable-libfaac --enable-libfaad --enable-libfaadbin --enable-libgsm --enable-libmp3lame --enable-libopencore-amrnb --enable-libopencore-amrwb --enable-libx264 --enable-gpl --enable-nonfree --enable-postproc --enable-pthreads --enable-shared --enable-swscale --enable-vdpau --enable-version3 --enable-x11grab libavutil 50.15. 1 / 50.15. 1 libavcodec 52.72. 2 / 52.72. 2 libavformat 52.64. 2 / 52.64. 2 libavdevice 52. 2. 0 / 52. 2. 0 libavfilter 1.19. 0 / 1.19. 0 libswscale 0.11. 0 / 0.11. 0 libpostproc 51. 2. 0 / 51. 2. 0 [mov,mp4,m4a,3gp,3g2,mj2 @ 0x86e5850]max_analyze_duration reached Seems stream 0 codec frame rate differs from container frame rate: 60000.00 (60000/1) -> 29.97 (30000/1001) Input #0, mov,mp4,m4a,3gp,3g2,mj2, from '/home/wwwusent/public_html/hwdvideos/uploads/originals/wdfg2f25dydm0r.mov': Metadata: major_brand : qt minor_version : 0 compatible_brands: qt Duration: 00:00:42.06, start: 0.000000, bitrate: 2793 kb/s Stream #0.0(und): Video: h264, yuv420p, 720x480 [PAR 10:11 DAR 15:11], 2534 kb/s, 29.97 fps, 29.97 tbr, 30k tbn, 60k tbc Stream #0.1(und): Audio: aac, 48000 Hz, 5.1, s16, 225 kb/s Stream #0.2(und): Data: tmcd / 0x64636D74 [libx264 @ 0x86ead50]width or height not divisible by 2 (640x469) Output #0, mp4, to '/home/wwwusent/public_html/hwdvideos/uploads/wdfg2f25dydm0r.mp4': Stream #0.0(und): Video: libx264, yuv420p, 640x469 [PAR 96:131 DAR 61440:61439], q=10-51, pass 1, 500 kb/s, 90k tbn, 29.97 tbc Stream mapping: Stream #0.0 -> #0.0 Error while opening encoder for output stream #0.0 - maybe incorrect parameters such as bit_rate, rate, width or height FFmpeg version 0.6.1, Copyright (c) 2000-2010 the FFmpeg developers built on Dec 4 2010 15:37:20 with gcc 4.1.2 20080704 (Red Hat 4.1.2-48) configuration: --prefix=/usr --libdir=/usr/lib --shlibdir=/usr/lib --mandir=/usr/share/man --incdir=/usr/include --disable-avisynth --extra-cflags='-O2 -g -pipe -Wall -Wp,-D_FORTIFY_SOURCE=2 -fexceptions -fstack-protector --param=ssp-buffer-size=4 -m32 -march=i386 -mtune=generic -fasynchronous-unwind-tables' --enable-avfilter --enable-avfilter-lavf --enable-libdirac --enable-libfaac --enable-libfaad --enable-libfaadbin --enable-libgsm --enable-libmp3lame --enable-libopencore-amrnb --enable-libopencore-amrwb --enable-libx264 --enable-gpl --enable-nonfree --enable-postproc --enable-pthreads --enable-shared --enable-swscale --enable-vdpau --enable-version3 --enable-x11grab libavutil 50.15. 1 / 50.15. 1 libavcodec 52.72. 2 / 52.72. 2 libavformat 52.64. 2 / 52.64. 2 libavdevice 52. 2. 0 / 52. 2. 0 libavfilter 1.19. 0 / 1.19. 0 libswscale 0.11. 0 / 0.11. 0 libpostproc 51. 2. 0 / 51. 2. 0 [mov,mp4,m4a,3gp,3g2,mj2 @ 0x903c850]max_analyze_duration reached Seems stream 0 codec frame rate differs from container frame rate: 60000.00 (60000/1) -> 29.97 (30000/1001) Input #0, mov,mp4,m4a,3gp,3g2,mj2, from '/home/wwwusent/public_html/hwdvideos/uploads/originals/wdfg2f25dydm0r.mov': Metadata: major_brand : qt minor_version : 0 compatible_brands: qt Duration: 00:00:42.06, start: 0.000000, bitrate: 2793 kb/s Stream #0.0(und): Video: h264, yuv420p, 720x480 [PAR 10:11 DAR 15:11], 2534 kb/s, 29.97 fps, 29.97 tbr, 30k tbn, 60k tbc Stream #0.1(und): Audio: aac, 48000 Hz, 5.1, s16, 225 kb/s Stream #0.2(und): Data: tmcd / 0x64636D74 [libx264 @ 0x90452c0]width or height not divisible by 2 (640x469) Output #0, mp4, to '/home/wwwusent/public_html/hwdvideos/uploads/wdfg2f25dydm0r.mp4': Stream #0.0(und): Video: libx264, yuv420p, 640x469 [PAR 142:109 DAR 90880:51121], q=10-51, pass 2, 500 kb/s, 90k tbn, 29.97 tbc Stream #0.1(und): Audio: libfaac, 48000 Hz, 5.1, s16, 128 kb/s Stream mapping: Stream #0.0 -> #0.0 Stream #0.1 -> #0.1 Error while opening encoder for output stream #0.0 - maybe incorrect parameters such as bit_rate, rate, width or height
Moving Moov Atom
ERROR: GT-QUICKSTART did not move the Moov Atom
GT-QUICKSTART INPUT
/home/wwwusent/public_html/hwdvideos/uploads/wdfg2f25dydm0r.mp4 /home/wwwusent/public_html/hwdvideos/uploads/wdfg2f25dydm0r.mp4.temp
GT-QUICKSTART OUTPUT
sh: /home/wwwusent/public_html/hwdvideos/uploads/wdfg2f25dydm0r.mp4: Permission denied
File 1 of 1 Aborted!
There are no videos waiting for thumbnail creation
Exiting...
There are no videos waiting for swf processing
Exiting...
There are no videos waiting for mp4 processing
Exiting...
There are no videos waiting for duration re-calculation
Exiting...
There are no videos waiting for thumbnail re-generation
Exiting...